<?xml version="1.0" standalone="no"?><!DOCTYPE svg PUBLIC "-//W3C//DTD SVG 1.1//EN" "http://www.w3.org/Graphics/SVG/1.1/DTD/svg11.dtd" ><svg xmlns="http://www.w3.org/2000/svg"><metadata></metadata><defs><font id="fonteditor" horiz-adv-x="984"><font-face font-family="?Ì]ô]ôfn`àOS 2.0 55 Regular" font-weight="400" font-stretch="normal" units-per-em="1000" panose-1="0 2 6 0 4 1 1 1 1 1" ascent="1060" descent="-340" x-height="1" bbox="10 -200 954 813" underline-thickness="50" underline-position="-75" unicode-range="U+0041-9891" /><missing-glyph horiz-adv-x="575" d="M80 742 L495 742 L495 0 L80 0 L80 742 ZM426 66 L426 677 L150 677 L150 66 L426 66 Z" /><glyph glyph-name="A" unicode="a" d="M486 207 L179 207 L103 0 L11 0 L274 694 L394 694 L656 0 L561 0 L486 207 ZM457 287 L340 610 L328 610 L209 287 L457 287 Z" /><glyph glyph-name="E" unicode="e" d="M503 81 L503 0 L92 0 L92 694 L478 694 L478 614 L182 614 L182 399 L458 399 L458 323 L182 323 L182 81 L503 81 Z" /><glyph glyph-name="F" unicode="f" d="M182 614 L182 389 L458 389 L458 309 L182 309 L182 0 L92 0 L92 694 L478 694 L478 614 L182 614 Z" /><glyph glyph-name="I" unicode="i" d="M92 694 L182 694 L182 0 L92 0 L92 694 Z" /><glyph glyph-name="L" unicode="l" d="M483 81 L483 0 L92 0 L92 694 L182 694 L182 81 L483 81 Z" /><glyph glyph-name="M" unicode="m" d="M92 694 L236 694 L413 247 L419 247 L596 694 L738 694 L738 0 L648 0 L648 603 L642 603 L464 157 L366 157 L186 603 L180 603 L180 0 L92 0 L92 694 Z" /><glyph glyph-name="N" unicode="n" d="M92 694 L233 694 L549 118 L555 118 L555 694 L645 694 L645 0 L526 0 L186 611 L180 611 L180 0 L92 0 L92 694 Z" /><glyph glyph-name="P" unicode="p" d="M92 694 L285 694 Q358 694 407 681 Q456 668 485.5 641 Q515 614 527 572 Q539 530 539 472 Q539 411 524.5 368 Q510 325 479.5 298 Q449 271 400.5 258.5 Q352 246 285 246 L182 246 L182 0 L92 0 L92 694 ZM277 321 Q325 321 358 328 Q391 335 410.5 352.5 Q430 370 438.5 399 Q447 428 447 472 Q447 512 438.5 539.5 Q430 567 410.5 584 Q391 601 358 608.5 Q325 616 277 616 L182 616 L182 321 L277 321 Z" /><glyph glyph-name="T" unicode="t" d="M511 614 L309 614 L309 0 L219 0 L219 614 L16 614 L16 694 L511 694 L511 614 Z" /><glyph glyph-name="V" unicode="v" d="M16 694 L112 694 L307 95 L313 95 L511 694 L602 694 L363 0 L251 0 L16 694 Z" /><glyph glyph-name="W" unicode="w" d="M26 694 L120 694 L250 105 L256 105 L397 613 L505 613 L646 105 L652 105 L781 694 L872 694 L707 0 L593 0 L452 514 L446 514 L302 0 L188 0 L26 694 Z" /><glyph glyph-name="a" unicode="a" d="M305 550 Q369 550 410.5 537.5 Q452 525 476.5 503 Q501 481 510.5 450 Q520 419 520 383 L520 0 L447 0 L434 82 Q422 60 402 43 Q382 26 356.5 14 Q331 2 301 -4 Q271 -10 241 -10 Q144 -10 99.5 32 Q55 74 55 151 Q55 199 70.5 232 Q86 265 114 285 Q142 305 181.5 314 Q221 323 269 323 L434 323 L434 368 Q434 392 428.5 412.5 Q423 433 408.5 447.5 Q394 462 368 470 Q342 478 301 478 Q274 478 242.5 475 Q211 472 182 466 L182 542 Q212 546 244 548 Q276 550 305 550 ZM249 62 Q317 62 365 89.5 Q413 117 434 165 L434 254 L275 254 Q242 254 217 250 Q192 246 176 234.5 Q160 223 152 203 Q144 183 144 152 Q144 107 168 84.5 Q192 62 249 62 Z" /><glyph glyph-name="c" unicode="c" d="M309 -10 Q249 -10 202.5 3.5 Q156 17 124 49.5 Q92 82 75.5 135.5 Q59 189 59 270 Q59 351 75.5 404.5 Q92 458 124 490.5 Q156 523 202.5 536.5 Q249 550 309 550 Q354 550 390.5 544 Q427 538 450 530 L450 451 Q420 462 386 468.5 Q352 475 310 475 Q265 475 235 465 Q205 455 186 431.5 Q167 408 159 368.5 Q151 329 151 269 Q151 210 159 171 Q167 132 186 108.5 Q205 85 235.5 75.5 Q266 66 311 66 Q349 66 386 71.5 Q423 77 452 89 L452 10 Q441 6 424.5 2.5 Q408 -1 388.5 -4 Q369 -7 348.5 -8.5 Q328 -10 309 -10 Z" /><glyph glyph-name="d" unicode="d" d="M545 760 L545 0 L472 0 L459 89 Q443 46 400 18 Q357 -10 283 -10 Q216 -10 172.5 10.5 Q129 31 104 68 Q79 105 69.5 156.5 Q60 208 60 270 Q60 325 69.5 376 Q79 427 104 465.5 Q129 504 172.5 527 Q216 550 283 550 Q323 550 352 542.5 Q381 535 402 521.5 Q423 508 437 489 Q451 470 459 446 L459 760 L545 760 ZM296 63 Q345 63 377 77 Q409 91 428 118 Q447 145 454.5 183.5 Q462 222 462 270 Q462 316 454.5 354.5 Q447 393 428 420.5 Q409 448 377 463 Q345 478 296 478 Q247 478 218.5 460.5 Q190 443 175 413.5 Q160 384 156 346.5 Q152 309 152 270 Q152 228 156.5 190 Q161 152 176 124 Q191 96 219.5 79.5 Q248 63 296 63 Z" /><glyph glyph-name="e" unicode="e" d="M520 324 Q520 313 518.5 296.5 Q517 280 515 261 L149 238 Q149 194 158 161.5 Q167 129 187 108 Q207 87 240 76.5 Q273 66 322 66 Q367 66 413.5 76 Q460 86 491 101 L491 22 Q479 16 460 10 Q441 4 417 -0.5 Q393 -5 365.5 -7.5 Q338 -10 309 -10 Q249 -10 202.5 3.5 Q156 17 124 49.5 Q92 82 75.5 135.5 Q59 189 59 270 Q59 351 75.5 404.5 Q92 458 123.5 490.5 Q155 523 200.5 536.5 Q246 550 304 550 Q373 550 415.5 529.5 Q458 509 481 476.5 Q504 444 512 403.5 Q520 363 520 324 ZM435 323 Q435 354 431 382.5 Q427 411 413.5 432.5 Q400 454 374 466.5 Q348 479 304 479 Q257 479 227.5 467 Q198 455 181 432 Q164 409 157 376 Q150 343 149 302 L435 323 Z" /><glyph glyph-name="g" unicode="g" d="M545 540 L545 38 Q545 -74 481.5 -137 Q418 -200 281 -200 Q246 -200 211 -196 Q176 -192 150 -187 L150 -114 Q211 -126 282 -126 Q372 -126 415.5 -86 Q459 -46 459 47 L459 101 Q442 53 402 26.5 Q362 0 284 0 Q216 0 173 20 Q130 40 104.5 76 Q79 112 69.5 162.5 Q60 213 60 275 Q60 331 69.5 381 Q79 431 104.5 468.5 Q130 506 173 528 Q216 550 284 550 Q325 550 354.5 541.5 Q384 533 404.5 518.5 Q425 504 438 483.5 Q451 463 459 439 L459 540 L545 540 ZM296 72 Q345 72 377 85.5 Q409 99 428 125 Q447 151 454.5 189 Q462 227 462 275 Q462 321 454.5 359 Q447 397 428 423 Q409 449 377 463.5 Q345 478 296 478 Q247 478 218.5 461 Q190 444 175 416 Q160 388 156 351 Q152 314 152 275 Q152 233 156.5 196 Q161 159 176 131.5 Q191 104 219.5 88 Q248 72 296 72 Z" /><glyph glyph-name="i" unicode="i" d="M135 639 Q106 639 94.5 648 Q83 657 83 690 Q83 724 94.5 732.5 Q106 741 135 741 Q162 741 174 732.5 Q186 724 186 690 Q186 657 174 648 Q162 639 135 639 ZM91 540 L177 540 L177 0 L91 0 L91 540 Z" /><glyph glyph-name="l" unicode="l" d="M211 -6 Q151 -6 121 21 Q91 48 91 109 L91 760 L177 760 L177 131 Q177 90 189 78 Q201 66 227 66 Q236 66 246.5 67 Q257 68 268 71 L268 0 Q256 -3 242.5 -4.5 Q229 -6 211 -6 Z" /><glyph glyph-name="m" unicode="m" d="M658 550 Q705 550 738.5 537 Q772 524 793.5 500.5 Q815 477 825 444.5 Q835 412 835 373 L835 0 L749 0 L749 342 Q749 405 727.5 439 Q706 473 645 473 Q621 473 599.5 469 Q578 465 560 454.5 Q542 444 528 425.5 Q514 407 505 378 L505 0 L419 0 L419 342 Q419 404 399 438.5 Q379 473 320 473 Q295 473 273 469.5 Q251 466 233 455.5 Q215 445 201 425.5 Q187 406 177 375 L177 0 L91 0 L91 540 L177 540 L177 469 Q202 517 243 533.5 Q284 550 333 550 Q397 550 435 526.5 Q473 503 490 462 Q502 488 520.5 505 Q539 522 561.5 532 Q584 542 608.5 546 Q633 550 658 550 Z" /><glyph glyph-name="n" unicode="n" d="M350 550 Q403 550 438 537 Q473 524 493.5 500.5 Q514 477 522.5 445 Q531 413 531 374 L531 0 L444 0 L444 342 Q444 373 440 397.5 Q436 422 424.5 438.5 Q413 455 393 464 Q373 473 341 473 Q315 473 290.5 469.5 Q266 466 244.5 454.5 Q223 443 205.5 422 Q188 401 177 365 L177 0 L91 0 L91 540 L177 540 L177 463 Q189 489 208.5 506 Q228 523 251 532.5 Q274 542 299.5 546 Q325 550 350 550 Z" /><glyph glyph-name="o" unicode="o" d="M309 -10 Q249 -10 202.5 3.5 Q156 17 124 49.5 Q92 82 75.5 135.5 Q59 189 59 270 Q59 351 75.5 404.5 Q92 458 124 490.5 Q156 523 202.5 536.5 Q249 550 309 550 Q369 550 415.5 536.5 Q462 523 493.5 490.5 Q525 458 541.5 404.5 Q558 351 558 270 Q558 189 541.5 135.5 Q525 82 493.5 49.5 Q462 17 415.5 3.5 Q369 -10 309 -10 ZM309 63 Q355 63 385.5 73 Q416 83 434 107 Q452 131 459.5 171 Q467 211 467 270 Q467 329 459 369 Q451 409 432.5 433 Q414 457 383.5 467.5 Q353 478 309 478 Q264 478 233.5 467.5 Q203 457 184.5 433 Q166 409 158.5 369 Q151 329 151 270 Q151 211 159 171 Q167 131 186 107 Q205 83 235 73 Q265 63 309 63 Z" /><glyph glyph-name="p" unicode="p" d="M352 550 Q420 550 463.5 529.5 Q507 509 531.5 472 Q556 435 565.5 383.5 Q575 332 575 270 Q575 214 565.5 163.5 Q556 113 531.5 74.5 Q507 36 463.5 13 Q420 -10 352 -10 Q273 -10 233.5 18 Q194 46 177 94 L177 -200 L91 -200 L91 540 L177 540 L177 443 Q194 491 234 520.5 Q274 550 352 550 ZM341 63 Q389 63 417.5 80.5 Q446 98 461 127 Q476 156 480.5 193.5 Q485 231 485 270 Q485 313 480 350.5 Q475 388 460 416.5 Q445 445 416.5 461.5 Q388 478 341 478 Q292 478 260 463.5 Q228 449 208.5 422 Q189 395 181 356.5 Q173 318 173 270 Q173 223 181 185 Q189 147 208.5 120 Q228 93 260 78 Q292 63 341 63 Z" /><glyph glyph-name="r" unicode="r" d="M359 550 L356 472 L344 472 Q318 472 293 467 Q268 462 246 448.5 Q224 435 206 412 Q188 389 177 353 L177 0 L91 0 L91 540 L177 540 L177 442 Q190 476 209 497 Q228 518 251 530 Q274 542 299.5 546 Q325 550 349 550 L359 550 Z" /><glyph glyph-name="s" unicode="s" d="M216 -6 Q196 -6 173.5 -4.5 Q151 -3 129 -1 Q107 1 88.5 4.5 Q70 8 59 11 L59 85 Q73 81 92.5 77 Q112 73 133 70 Q154 67 175.5 65.5 Q197 64 215 64 Q277 64 308.5 81.5 Q340 99 340 147 Q340 171 335.5 186.5 Q331 202 318 212.5 Q305 223 281.5 231 Q258 239 219 248 Q174 258 145 271 Q116 284 99 302 Q82 320 75 345 Q68 370 68 404 Q68 470 116.5 510 Q165 550 262 550 Q301 550 339.5 545 Q378 540 398 532 L392 459 Q369 468 335 474 Q301 480 263 480 Q206 480 177.5 464 Q149 448 149 402 Q149 381 153.5 368 Q158 355 169 345.5 Q180 336 200 329.5 Q220 323 252 316 Q298 305 330.5 292.5 Q363 280 383 261.5 Q403 243 412 216 Q421 189 421 150 Q421 69 368.5 31.5 Q316 -6 216 -6 Z" /><glyph glyph-name="t" unicode="t" d="M259 66 Q277 66 290.5 67.5 Q304 69 318 72 L318 -1 Q302 -3 288 -4.5 Q274 -6 257 -6 Q212 -6 181.5 0.5 Q151 7 131.5 26 Q112 45 103.5 78.5 Q95 112 95 165 L95 468 L15 468 L15 540 L95 540 L95 668 L181 668 L181 540 L315 540 L315 468 L181 468 L181 170 Q181 138 184 118 Q187 98 195.5 86.5 Q204 75 219 70.5 Q234 66 259 66 Z" /><glyph glyph-name="u" unicode="u" d="M522 540 L522 0 L449 0 L438 78 Q426 51 407 34 Q388 17 365.5 7.5 Q343 -2 318 -6 Q293 -10 268 -10 Q215 -10 180 3 Q145 16 124.5 39 Q104 62 95.5 94.5 Q87 127 87 166 L87 540 L173 540 L173 198 Q173 167 177 142.5 Q181 118 192.5 101 Q204 84 224.5 75 Q245 66 277 66 Q302 66 326 69.5 Q350 73 370.5 84.5 Q391 96 407.5 117 Q424 138 436 173 L436 540 L522 540 Z" /><glyph glyph-name="v" unicode="v" d="M10 540 L97 540 L261 86 L267 86 L425 540 L516 540 L314 0 L212 0 L10 540 Z" /><glyph glyph-name="uni4E1A" unicode="&#x4e1a;" d="M641 792 L641 21 L931 21 L931 -48 L53 -48 L53 21 L347 21 L347 793 L425 790 L425 21 L560 21 L560 795 L641 792 ZM892 609 Q816 351 739 190 L665 219 Q710 304 752 419 Q794 534 818 632 L892 609 ZM237 193 Q209 293 165.5 408.5 Q122 524 84 596 L155 625 Q189 561 239 434.5 Q289 308 313 227 L237 193 Z" /><glyph glyph-name="uni4EF6" unicode="&#x4ef6;" d="M941 286 L941 214 L676 214 L676 -99 L600 -99 L600 214 L305 214 L305 286 L600 286 L600 522 L453 522 Q425 432 388 352 L313 379 Q351 460 383 561 Q415 662 432 757 L507 741 Q494 666 474 594 L600 594 L600 807 L676 803 L676 594 L899 594 L899 522 L676 522 L676 286 L941 286 ZM321 773 Q288 666 250 583 L250 -97 L177 -97 L177 443 Q131 365 75 292 L17 341 Q171 545 243 789 L321 773 Z" /><glyph glyph-name="uni4F01" unicode="&#x4f01;" d="M72 371 L25 439 Q162 512 276 608 Q390 704 456 799 L526 799 Q596 699 706 606 Q816 513 953 440 L905 371 Q758 461 657 546.5 Q556 632 491 723 Q429 637 314 541 Q199 445 72 371 ZM822 245 L543 245 L543 17 L912 17 L912 -53 L55 -53 L55 17 L197 17 L197 383 L271 380 L271 17 L467 17 L467 535 L543 532 L543 319 L822 319 L822 245 Z" /><glyph glyph-name="uni54C1" unicode="&#x54c1;" d="M205 764 L765 764 L765 442 L205 442 L205 764 ZM277 512 L692 512 L692 696 L277 696 L277 512 ZM170 -76 L98 -76 L98 340 L442 340 L442 -76 L370 -76 L370 -20 L170 -20 L170 -76 ZM532 -76 L532 340 L879 340 L879 -76 L806 -76 L806 -20 L604 -20 L604 -76 L532 -76 ZM370 48 L370 272 L170 272 L170 48 L370 48 ZM604 272 L604 48 L806 48 L806 272 L604 272 Z" /><glyph glyph-name="uni5546" unicode="&#x5546;" d="M933 637 L701 637 L661 514 L854 514 L854 15 Q853 -25 845.5 -43.5 Q838 -62 816.5 -70.5 Q795 -79 747 -83 L678 -89 L656 -22 L736 -15 Q758 -13 767.5 -8.5 Q777 -4 780 6.5 Q783 17 784 41 L784 448 L196 448 L196 -86 L127 -86 L127 514 L318 514 Q297 591 281 637 L53 637 L53 705 L466 705 Q452 750 436 793 L510 807 Q521 781 546 705 L933 705 L933 637 ZM584 514 L626 637 L354 637 Q380 555 390 514 L584 514 ZM664 17 L319 17 L319 273 Q299 255 261 226 L213 274 Q265 311 303 346.5 Q341 382 379 429 L430 385 Q390 333 324 277 L664 277 L664 17 ZM721 223 Q693 256 638.5 306 Q584 356 551 382 L596 426 Q632 396 686.5 348.5 Q741 301 763 277 L721 223 ZM596 211 L388 211 L388 81 L596 81 L596 211 Z" /><glyph glyph-name="uni5BFC" unicode="&#x5bfc;" d="M153 444 L153 757 L788 757 L788 509 L228 509 L228 460 Q228 431 234 417.5 Q240 404 256.5 399 Q273 394 309 392 Q439 388 504 388 Q569 388 699 392 Q747 394 766.5 400 Q786 406 790 419 Q799 445 803 482 L883 444 Q877 409 864 371 Q857 349 827.5 337 Q798 325 732 323 Q584 319 510 319 Q435 319 287 323 Q234 325 205.5 335 Q177 345 165 370.5 Q153 396 153 444 ZM711 577 L711 689 L228 689 L228 577 L711 577 ZM930 219 L930 150 L742 150 L742 35 Q742 -15 729.5 -40.5 Q717 -66 686 -77.5 Q655 -89 592 -93 L534 -97 L507 -24 L580 -20 Q618 -18 636.5 -11 Q655 -4 661 11 Q667 26 667 56 L667 150 L257 150 Q363 86 433 28 L400 -42 Q362 -6 306 34.5 Q250 75 202 104 L238 150 L48 150 L48 219 L667 219 L667 290 L742 287 L742 219 L930 219 Z" /><glyph glyph-name="uni6587" unicode="&#x6587;" d="M909 -91 Q778 -42 676 12.5 Q574 67 496 134 Q420 69 318 13.5 Q216 -42 79 -95 L37 -18 Q172 28 270.5 78 Q369 128 440 186 Q363 264 309.5 362 Q256 460 222 584 L69 584 L69 656 L457 656 Q430 746 412 793 L490 810 Q496 795 508 758 Q520 721 528 698 Q532 683 541 656 L908 656 L908 584 L751 584 Q720 456 671.5 359 Q623 262 550 186 Q622 128 719 80 Q816 32 945 -11 L909 -91 ZM303 584 Q333 474 380 388.5 Q427 303 494 236 Q559 303 601 387.5 Q643 472 670 584 L303 584 Z" /><glyph glyph-name="uni65C5" unicode="&#x65c5;" d="M214 586 Q214 486 213 448 L383 448 Q382 386 378 249.5 Q374 113 370 25 Q368 -10 358.5 -29.5 Q349 -49 326.5 -59 Q304 -69 262 -72 L222 -75 L199 -4 L247 0 Q281 1 292.5 16 Q304 31 306 64 Q308 86 312 202.5 Q316 319 317 378 L212 378 Q208 269 194 191 Q180 113 155.5 50 Q131 -13 90 -91 L22 -64 Q64 7 89.5 71.5 Q115 136 128.5 219.5 Q142 303 142 420 L144 586 L61 586 L61 656 L229 656 Q204 743 184 798 L250 813 Q259 789 273.5 742 Q288 695 299 656 L412 656 L412 586 L214 586 ZM919 631 L543 631 Q501 548 435 466 L379 511 Q482 635 538 810 L610 790 Q588 728 575 699 L919 699 L919 631 ZM949 -27 L896 -80 Q669 106 621 428 Q581 421 539 416 L539 14 L687 73 L695 0 Q550 -54 519 -66 Q485 -81 465 -92 L436 -30 Q470 -10 470 19 L470 478 Q572 488 677 510.5 Q782 533 864 562 L888 496 Q805 466 685 441 Q700 349 726 273 Q766 295 812.5 325.5 Q859 356 888 379 L922 318 Q892 294 842.5 262.5 Q793 231 751 210 Q785 139 833.5 81.5 Q882 24 949 -27 Z" /><glyph glyph-name="uni677F" unicode="&#x677f;" d="M347 265 Q333 290 306.5 324.5 Q280 359 253 388 L253 -103 L183 -103 L183 381 Q135 246 72 152 L12 197 Q61 264 107.5 361.5 Q154 459 178 546 L57 546 L57 616 L183 616 L183 801 L253 798 L253 616 L380 616 L380 546 L253 546 L253 434 L280 459 Q306 434 342.5 392 Q379 350 396 324 L347 265 ZM954 -45 L906 -111 Q763 -29 681 66 Q593 -24 441 -110 L390 -48 Q548 36 635 126 Q593 189 562.5 268 Q532 347 510 449 L480 449 Q479 320 464 225 Q449 130 415.5 51.5 Q382 -27 326 -107 L256 -64 Q313 10 345.5 82.5 Q378 155 392.5 246 Q407 337 407 466 L407 710 Q619 723 881 769 L897 698 Q696 660 480 643 L480 517 L871 517 L871 449 Q845 343 812 264.5 Q779 186 729 123 Q808 34 954 -45 ZM581 449 Q614 286 683 183 Q722 238 746.5 300.5 Q771 363 792 449 L581 449 Z" /><glyph glyph-name="uni6A21" unicode="&#x6a21;" d="M550 579 L485 579 L485 644 L354 644 L354 709 L485 709 L485 804 L550 802 L550 709 L701 709 L701 804 L767 802 L767 709 L918 709 L918 644 L767 644 L767 579 L701 579 L701 644 L550 644 L550 579 ZM326 273 Q304 315 253 380 L253 -95 L185 -95 L185 397 Q132 265 72 167 L13 206 Q62 283 108 375 Q154 467 180 549 L59 549 L59 614 L185 614 L185 801 L253 799 L253 614 L358 614 L358 549 L253 549 L253 431 L272 449 Q293 430 323.5 390.5 Q354 351 371 324 L326 273 ZM667 124 Q702 66 770.5 27.5 Q839 -11 953 -33 L927 -103 Q811 -73 737.5 -30 Q664 13 623 74 Q591 16 519 -27 Q447 -70 325 -103 L289 -40 Q410 -13 476 27.5 Q542 68 566 124 L336 124 L336 186 L581 186 Q582 190 582 198 Q583 213 583 254 L386 254 L386 558 L856 558 L856 254 L655 254 L653 198 L653 186 L921 186 L921 124 L667 124 ZM789 433 L789 502 L451 502 L451 433 L789 433 ZM789 381 L451 381 L451 311 L789 311 L789 381 Z" /><glyph glyph-name="uni6E38" unicode="&#x6e38;" d="M941 274 L941 205 L779 205 L779 20 Q779 -21 770 -40.5 Q761 -60 740.5 -68 Q720 -76 676 -81 L629 -86 L604 -13 L650 -9 Q680 -6 691 -2 Q702 2 705 11.5 Q708 21 708 47 L708 205 L567 205 L567 274 L708 274 L708 342 L803 443 L614 443 L614 510 L584 463 L524 501 Q573 567 611.5 647 Q650 727 672 806 L741 796 Q723 735 701 682 L927 682 L927 609 L669 609 Q653 576 617 514 L888 514 L888 441 L779 324 L779 274 L941 274 ZM389 577 Q389 517 387 439 L548 439 L544 331 Q538 111 534 30 Q531 -7 521.5 -26.5 Q512 -46 491.5 -55 Q471 -64 432 -69 L386 -75 L362 -3 L415 1 Q438 3 448.5 9 Q459 15 462.5 26 Q466 37 468 62 Q471 117 474 212.5 Q477 308 479 367 L385 367 Q380 251 365.5 172 Q351 93 323.5 30.5 Q296 -32 247 -100 L187 -61 Q239 12 265.5 75.5 Q292 139 302.5 215 Q313 291 318 419 L321 577 L262 577 L262 646 L398 646 Q385 715 362 790 L428 801 Q437 773 447.5 729 Q458 685 466 646 L571 646 L571 577 L389 577 ZM206 588 Q184 617 141.5 654 Q99 691 66 713 L109 771 Q142 747 184.5 712.5 Q227 678 250 654 L206 588 ZM192 353 Q167 385 119 429.5 Q71 474 35 500 L78 557 Q109 537 158.5 494 Q208 451 236 421 L192 353 ZM186 274 L218 263 Q205 192 171.5 80.5 Q138 -31 110 -94 L41 -73 Q69 -9 104.5 103.5 Q140 216 152 285 L186 274 Z" /><glyph glyph-name="uni822A" unicode="&#x822a;" d="M316 798 Q307 755 287 703 L418 703 L418 21 Q418 -18 407.5 -39.5 Q397 -61 372 -71 Q347 -81 299 -84 L254 -87 L233 -17 L288 -13 Q316 -11 329.5 -6 Q343 -1 347.5 10 Q352 21 352 43 L352 312 L195 312 Q194 197 185.5 126 Q177 55 160.5 5 Q144 -45 113 -102 L51 -67 Q81 -9 96.5 36 Q112 81 120 144 Q128 207 129 312 L40 312 L40 382 L129 382 L129 703 L214 703 Q224 728 233 758.5 Q242 789 246 809 L316 798 ZM922 659 L922 587 L452 587 L452 659 L645 659 Q620 747 602 791 L676 805 Q691 769 722 659 L922 659 ZM195 382 L352 382 L352 635 L195 635 L195 382 ZM280 415 Q272 445 251.5 492 Q231 539 215 567 L268 592 Q282 569 303.5 522.5 Q325 476 335 446 L280 415 ZM944 128 Q944 58 930 -10 Q923 -47 906 -61 Q889 -75 853 -75 L808 -75 Q769 -75 749.5 -54 Q730 -33 730 18 L730 393 L591 393 L591 297 Q591 185 582.5 120 Q574 55 550.5 4.5 Q527 -46 479 -106 L420 -57 Q470 2 491 43.5 Q512 85 519 142.5 Q526 200 526 314 L526 463 L799 463 L799 39 Q799 15 804 6 Q809 -3 823 -3 L844 -3 Q856 -3 862.5 6.5 Q869 16 873 42 Q882 109 881 151 L944 128 ZM282 93 Q273 124 252 172 Q231 220 215 247 L267 274 Q282 249 304 203 Q326 157 337 127 L282 93 Z" /><glyph glyph-name="uni89C6" unicode="&#x89c6;" d="M342 213 Q307 263 246 324 L246 -99 L178 -99 L178 305 Q134 255 63 187 L18 243 Q193 396 265 565 L63 565 L63 638 L191 638 Q170 719 143 793 L211 805 Q236 739 261 638 L342 638 L342 565 Q305 479 251 399 Q285 372 323.5 335.5 Q362 299 386 270 L342 213 ZM781 680 L479 680 L479 192 L409 192 L409 752 L852 752 L852 194 L781 194 L781 680 ZM935 126 Q929 40 919 -7 Q912 -40 889 -54 Q866 -68 809 -72 Q781 -74 766 -74 Q752 -74 722 -72 Q667 -68 646 -46.5 Q625 -25 625 31 L625 196 Q593 108 525 35 Q457 -38 341 -110 L295 -47 Q408 19 469 84.5 Q530 150 555.5 228 Q581 306 587 423 Q589 455 589 620 L662 617 L659 415 Q657 329 645 267 L695 265 L695 58 Q695 23 704.5 11 Q714 -1 747 -3 Q754 -4 775 -4 Q809 -4 825 0 Q841 4 847.5 13 Q854 22 858 42 Q867 87 867 151 L935 126 Z" /><glyph glyph-name="uni9891" unicode="&#x9891;" d="M483 301 Q427 151 332 58.5 Q237 -34 80 -107 L39 -43 Q143 5 209 48 Q275 91 320 145 L258 145 L258 397 L41 397 L41 464 L125 464 L125 722 L189 720 L189 464 L279 464 L279 801 L345 799 L345 672 L457 672 L457 605 L345 605 L345 464 L476 464 L476 397 L325 397 L325 151 Q381 221 417 323 L483 301 ZM624 568 Q643 626 652 679 L466 679 L466 747 L925 747 L925 679 L721 679 Q705 602 693 568 L868 568 L868 111 L800 111 L800 499 L566 499 L566 111 L499 111 L499 568 L624 568 ZM719 445 L719 254 Q719 173 692.5 110.5 Q666 48 604.5 -5.5 Q543 -59 437 -107 L399 -41 Q501 3 556 48.5 Q611 94 631 143 Q651 192 651 257 L651 447 L719 445 ZM218 316 Q197 264 165.5 201 Q134 138 102 85 L45 120 Q74 164 103 223 Q132 282 152 336 L218 316 ZM728 128 Q776 97 847.5 43 Q919 -11 942 -34 L903 -98 Q867 -60 802 -8 Q737 44 692 73 L728 128 Z" /></font>
</defs>
</svg>
